  0
SECTION
  2
HEADER
  9
$ACADVER
  1
AC1015
  9
$ACADMAINTVER
 70
     6
  9
$DWGCODEPAGE
  3
ANSI_1252
  9
$INSBASE
 10
0.0
 20
0.0
 30
0.0
  9
$EXTMIN
 10
815.1209654010742
 20
76.7833055615854
 30
0.0
  9
$EXTMAX
 10
2256.204100669018
 20
705.807653333467
 30
0.0
  9
$LIMMIN
 10
0.0
 20
0.0
  9
$LIMMAX
 10
594.0
 20
420.0
  9
$ORTHOMODE
 70
     0
  9
$REGENMODE
 70
     1
  9
$FILLMODE
 70
     1
  9
$QTEXTMODE
 70
     0
  9
$MIRRTEXT
 70
     1
  9
$LTSCALE
 40
1.0
  9
$ATTMODE
 70
     1
  9
$TEXTSIZE
 40
2.5
  9
$TRACEWID
 40
1.0
  9
$TEXTSTYLE
  7
Standard
  9
$CLAYER
  8
0
  9
$CELTYPE
  6
ByLayer
  9
$CECOLOR
 62
   256
  9
$CELTSCALE
 40
1.0
  9
$DISPSILH
 70
     0
  9
$DIMSCALE
 40
1.0
  9
$DIMASZ
 40
6.0
  9
$DIMEXO
 40
1.0
  9
$DIMDLI
 40
3.75
  9
$DIMRND
 40
0.0
  9
$DIMDLE
 40
0.0
  9
$DIMEXE
 40
1.0
  9
$DIMTP
 40
0.0
  9
$DIMTM
 40
0.0
  9
$DIMTXT
 40
3.5
  9
$DIMCEN
 40
2.5
  9
$DIMTSZ
 40
0.0
  9
$DIMTOL
 70
     0
  9
$DIMLIM
 70
     0
  9
$DIMTIH
 70
     1
  9
$DIMTOH
 70
     1
  9
$DIMSE1
 70
     0
  9
$DIMSE2
 70
     0
  9
$DIMTAD
 70
     1
  9
$DIMZIN
 70
     0
  9
$DIMBLK
  1

  9
$DIMASO
 70
     1
  9
$DIMSHO
 70
     1
  9
$DIMPOST
  1

  9
$DIMAPOST
  1

  9
$DIMALT
 70
     0
  9
$DIMALTD
 70
     3
  9
$DIMALTF
 40
0.0393700787401575
  9
$DIMLFAC
 40
1.0
  9
$DIMTOFL
 70
     1
  9
$DIMTVP
 40
0.0
  9
$DIMTIX
 70
     0
  9
$DIMSOXD
 70
     0
  9
$DIMSAH
 70
     0
  9
$DIMBLK1
  1

  9
$DIMBLK2
  1

  9
$DIMSTYLE
  2
ISO-25
  9
$DIMCLRD
 70
     0
  9
$DIMCLRE
 70
     0
  9
$DIMCLRT
 70
     0
  9
$DIMTFAC
 40
1.0
  9
$DIMGAP
 40
1.524
  9
$DIMJUST
 70
     0
  9
$DIMSD1
 70
     0
  9
$DIMSD2
 70
     0
  9
$DIMTOLJ
 70
     0
  9
$DIMTZIN
 70
     0
  9
$DIMALTZ
 70
     0
  9
$DIMALTTZ
 70
     0
  9
$DIMUPT
 70
     0
  9
$DIMDEC
 70
     2
  9
$DIMTDEC
 70
     2
  9
$DIMALTU
 70
     2
  9
$DIMALTTD
 70
     3
  9
$DIMTXSTY
  7
Standard
  9
$DIMAUNIT
 70
     0
  9
$DIMADEC
 70
     0
  9
$DIMALTRND
 40
0.0
  9
$DIMAZIN
 70
     0
  9
$DIMDSEP
 70
    44
  9
$DIMATFIT
 70
     3
  9
$DIMFRAC
 70
     0
  9
$DIMLDRBLK
  1

  9
$DIMLUNIT
 70
     2
  9
$DIMLWD
 70
    -2
  9
$DIMLWE
 70
    -2
  9
$DIMTMOVE
 70
     0
  9
$LUNITS
 70
     2
  9
$LUPREC
 70
     2
  9
$SKETCHINC
 40
1.0
  9
$FILLETRAD
 40
7.0
  9
$AUNITS
 70
     0
  9
$AUPREC
 70
     0
  9
$MENU
  1
.
  9
$ELEVATION
 40
0.0
  9
$PELEVATION
 40
0.0
  9
$THICKNESS
 40
0.0
  9
$LIMCHECK
 70
     0
  9
$CHAMFERA
 40
10.0
  9
$CHAMFERB
 40
10.0
  9
$CHAMFERC
 40
20.0
  9
$CHAMFERD
 40
0.0
  9
$SKPOLY
 70
     0
  9
$TDCREATE
 40
2454524.843826308
  9
$TDUCREATE
 40
2454524.406326308
  9
$TDUPDATE
 40
2457718.632090856
  9
$TDUUPDATE
 40
2457718.194590856
  9
$TDINDWG
 40
0.0792803935
  9
$TDUSRTIMER
 40
2457718.190141088
  9
$USRTIMER
 70
     1
  9
$ANGBASE
 50
0.0
  9
$ANGDIR
 70
     0
  9
$PDMODE
 70
     0
  9
$PDSIZE
 40
-1.0
  9
$PLINEWID
 40
0.0
  9
$SPLFRAME
 70
     0
  9
$SPLINETYPE
 70
     6
  9
$SPLINESEGS
 70
     8
  9
$HANDSEED
  5
370
  9
$SURFTAB1
 70
     6
  9
$SURFTAB2
 70
     6
  9
$SURFTYPE
 70
     6
  9
$SURFU
 70
     6
  9
$SURFV
 70
     6
  9
$UCSBASE
  2

  9
$UCSNAME
  2

  9
$UCSORG
 10
0.0
 20
0.0
 30
0.0
  9
$UCSXDIR
 10
1.0
 20
0.0
 30
0.0
  9
$UCSYDIR
 10
0.0
 20
1.0
 30
0.0
  9
$UCSORTHOREF
  2

  9
$UCSORTHOVIEW
 70
     0
  9
$UCSORGTOP
 10
0.0
 20
0.0
 30
0.0
  9
$UCSORGBOTTOM
 10
0.0
 20
0.0
 30
0.0
  9
$UCSORGLEFT
 10
0.0
 20
0.0
 30
0.0
  9
$UCSORGRIGHT
 10
0.0
 20
0.0
 30
0.0
  9
$UCSORGFRONT
 10
0.0
 20
0.0
 30
0.0
  9
$UCSORGBACK
 10
0.0
 20
0.0
 30
0.0
  9
$PUCSBASE
  2

  9
$PUCSNAME
  2

  9
$PUCSORG
 10
0.0
 20
0.0
 30
0.0
  9
$PUCSXDIR
 10
1.0
 20
0.0
 30
0.0
  9
$PUCSYDIR
 10
0.0
 20
1.0
 30
0.0
  9
$PUCSORTHOREF
  2

  9
$PUCSORTHOVIEW
 70
     0
  9
$PUCSORGTOP
 10
0.0
 20
0.0
 30
0.0
  9
$PUCSORGBOTTOM
 10
0.0
 20
0.0
 30
0.0
  9
$PUCSORGLEFT
 10
0.0
 20
0.0
 30
0.0
  9
$PUCSORGRIGHT
 10
0.0
 20
0.0
 30
0.0
  9
$PUCSORGFRONT
 10
0.0
 20
0.0
 30
0.0
  9
$PUCSORGBACK
 10
0.0
 20
0.0
 30
0.0
  9
$USERI1
 70
     0
  9
$USERI2
 70
     0
  9
$USERI3
 70
     0
  9
$USERI4
 70
     0
  9
$USERI5
 70
     0
  9
$USERR1
 40
0.0
  9
$USERR2
 40
0.0
  9
$USERR3
 40
0.0
  9
$USERR4
 40
0.0
  9
$USERR5
 40
0.0
  9
$WORLDVIEW
 70
     1
  9
$SHADEDGE
 70
     3
  9
$SHADEDIF
 70
    70
  9
$TILEMODE
 70
     1
  9
$MAXACTVP
 70
    64
  9
$PINSBASE
 10
0.0
 20
0.0
 30
0.0
  9
$PLIMCHECK
 70
     0
  9
$PEXTMIN
 10
1.000000000000000E+20
 20
1.000000000000000E+20
 30
1.000000000000000E+20
  9
$PEXTMAX
 10
-1.000000000000000E+20
 20
-1.000000000000000E+20
 30
-1.000000000000000E+20
  9
$PLIMMIN
 10
0.0
 20
0.0
  9
$PLIMMAX
 10
0.0
 20
0.0
  9
$UNITMODE
 70
     0
  9
$VISRETAIN
 70
     1
  9
$PLINEGEN
 70
     0
  9
$PSLTSCALE
 70
     1
  9
$TREEDEPTH
 70
  3020
  9
$CMLSTYLE
  2
Standard
  9
$CMLJUST
 70
     0
  9
$CMLSCALE
 40
20.0
  9
$PROXYGRAPHICS
 70
     1
  9
$MEASUREMENT
 70
     1
  9
$CELWEIGHT
370
    -1
  9
$ENDCAPS
280
     0
  9
$JOINSTYLE
280
     0
  9
$LWDISPLAY
290
     1
  9
$INSUNITS
 70
     4
  9
$HYPERLINKBASE
  1

  9
$STYLESHEET
  1

  9
$XEDIT
290
     1
  9
$CEPSNTYPE
380
     0
  9
$PSTYLEMODE
290
     1
  9
$FINGERPRINTGUID
  2
{2E4CAB79-3B54-4A72-99AE-E30FB2630F12}
  9
$VERSIONGUID
  2
{2D94507E-F0F7-4689-8D15-A7F949BDDF16}
  9
$EXTNAMES
290
     1
  9
$PSVPSCALE
 40
0.0
  9
$OLESTARTUP
290
     0
  0
ENDSEC
  0
SECTION
  2
CLASSES
  0
CLASS
  1
ACDBDICTIONARYWDFLT
  2
AcDbDictionaryWithDefault
  3
ObjectDBX Classes
 90
        0
280
     0
281
     0
  0
CLASS
  1
VISUALSTYLE
  2
AcDbVisualStyle
  3
ObjectDBX Classes
 90
     4095
280
     0
281
     0
  0
CLASS
  1
SCALE
  2
AcDbScale
  3
ObjectDBX Classes
 90
     1153
280
     0
281
     0
  0
CLASS
  1
DICTIONARYVAR
  2
AcDbDictionaryVar
  3
ObjectDBX Classes
 90
        0
280
     0
281
     0
  0
CLASS
  1
ACDBPLACEHOLDER
  2
AcDbPlaceHolder
  3
ObjectDBX Classes
 90
        0
280
     0
281
     0
  0
CLASS
  1
LAYOUT
  2
AcDbLayout
  3
ObjectDBX Classes
 90
        0
280
     0
281
     0
  0
CLASS
  1
MATERIAL
  2
AcDbMaterial
  3
ObjectDBX Classes
 90
     1153
280
     0
281
     0
  0
CLASS
  1
TABLESTYLE
  2
AcDbTableStyle
  3
ObjectDBX Classes
 90
     4095
280
     0
281
     0
  0
CLASS
  1
SUN
  2
AcDbSun
  3
SCENEOE
 90
     1153
280
     0
281
     0
  0
CLASS
  1
RASTERVARIABLES
  2
AcDbRasterVariables
  3
ISM
 90
        0
280
     0
281
     0
  0
CLASS
  1
MLEADERSTYLE
  2
AcDbMLeaderStyle
  3
ACDB_MLEADERSTYLE_CLASS
 90
     4095
280
     0
281
     0
  0
ENDSEC
  0
SECTION
  2
TABLES
  0
TABLE
  2
VPORT
  5
8
330
0
100
AcDbSymbolTable
 70
     2
  0
VPORT
  5
F8
330
8
100
AcDbSymbolTableRecord
100
AcDbViewportTableRecord
  2
*Active
 70
     0
 10
0.0
 20
0.0
 11
1.0
 21
1.0
 12
1581.905570069311
 22
380.11799036382
 13
0.0
 23
0.0
 14
10.0
 24
10.0
 15
10.0
 25
10.0
 16
0.0
 26
0.0
 36
1.0
 17
0.0
 27
0.0
 37
0.0
 40
1427.807698170288
 41
1.905160390516039
 42
50.0
 43
0.0
 44
0.0
 50
0.0
 51
0.0
 71
    16
 72
  2000
 73
     1
 74
     3
 75
     0
 76
     0
 77
     0
 78
     0
281
     0
 65
     1
110
0.0
120
0.0
130
0.0
111
1.0
121
0.0
131
0.0
112
0.0
122
1.0
132
0.0
 79
     0
146
0.0
  0
ENDTAB
  0
TABLE
  2
LTYPE
  5
5
330
0
100
AcDbSymbolTable
 70
     6
  0
LTYPE
  5
14
330
5
100
AcDbSymbolTableRecord
100
AcDbLinetypeTableRecord
  2
ByBlock
 70
     0
  3

 72
    65
 73
     0
 40
0.0
  0
LTYPE
  5
15
330
5
100
AcDbSymbolTableRecord
100
AcDbLinetypeTableRecord
  2
ByLayer
 70
     0
  3

 72
    65
 73
     0
 40
0.0
  0
LTYPE
  5
16
330
5
100
AcDbSymbolTableRecord
100
AcDbLinetypeTableRecord
  2
Continuous
 70
     0
  3
Solid line
 72
    65
 73
     0
 40
0.0
  0
LTYPE
  5
5D
330
5
100
AcDbSymbolTableRecord
100
AcDbLinetypeTableRecord
  2
HIDDEN
 70
     0
  3
Hidden __ __ __ __ __ __ __ __ __ __ __ __ __ __
 72
    65
 73
     2
 40
1.905
 49
1.27
 74
     0
 49
-0.635
 74
     0
  0
LTYPE
  5
5E
330
5
100
AcDbSymbolTableRecord
100
AcDbLinetypeTableRecord
  2
PHANTOM
 70
     0
  3
Phantom ______  __  __  ______  __  __  ______
 72
    65
 73
     6
 40
12.7
 49
6.35
 74
     0
 49
-1.27
 74
     0
 49
1.27
 74
     0
 49
-1.27
 74
     0
 49
1.27
 74
     0
 49
-1.27
 74
     0
  0
LTYPE
  5
5F
330
5
100
AcDbSymbolTableRecord
100
AcDbLinetypeTableRecord
  2
CENTER
 70
     0
  3
Center ____ _ ____ _ ____ _ ____ _ ____ _ ____
 72
    65
 73
     4
 40
10.16
 49
6.35
 74
     0
 49
-1.27
 74
     0
 49
1.27
 74
     0
 49
-1.27
 74
     0
  0
LTYPE
  5
60
330
5
100
AcDbSymbolTableRecord
100
AcDbLinetypeTableRecord
  2
CENTERX2
 70
     0
  3
Center (2x) ________  __  ________  __  _____
 72
    65
 73
     4
 40
20.32
 49
12.7
 74
     0
 49
-2.54
 74
     0
 49
2.54
 74
     0
 49
-2.54
 74
     0
  0
LTYPE
  5
61
330
5
100
AcDbSymbolTableRecord
100
AcDbLinetypeTableRecord
  2
DOT2
 70
     0
  3
Dot (.5x) ........................................
 72
    65
 73
     2
 40
0.635
 49
0.0
 74
     0
 49
-0.635
 74
     0
  0
ENDTAB
  0
TABLE
  2
LAYER
  5
2
330
0
100
AcDbSymbolTable
 70
     3
  0
LAYER
  5
10
330
2
100
AcDbSymbolTableRecord
100
AcDbLayerTableRecord
  2
0
 70
     0
 62
     7
  6
Continuous
370
    -3
390
F
  0
LAYER
  5
62
330
2
100
AcDbSymbolTableRecord
100
AcDbLayerTableRecord
  2
FORMAT
 70
     0
 62
     7
  6
Continuous
370
    -3
390
F
  0
LAYER
  5
78
330
2
100
AcDbSymbolTableRecord
100
AcDbLayerTableRecord
  2
Defpoints
 70
     0
 62
     7
  6
Continuous
290
     0
370
    -3
390
F
  0
ENDTAB
  0
TABLE
  2
STYLE
  5
3
330
0
100
AcDbSymbolTable
 70
     1
  0
STYLE
  5
11
330
3
100
AcDbSymbolTableRecord
100
AcDbTextStyleTableRecord
  2
Standard
 70
     0
 40
0.0
 41
1.0
 50
0.0
 71
     0
 42
2.5
  3
txt
  4

  0
ENDTAB
  0
TABLE
  2
VIEW
  5
6
330
0
100
AcDbSymbolTable
 70
     0
  0
ENDTAB
  0
TABLE
  2
UCS
  5
7
330
0
100
AcDbSymbolTable
 70
     0
  0
ENDTAB
  0
TABLE
  2
APPID
  5
9
330
0
100
AcDbSymbolTable
 70
     2
  0
APPID
  5
12
330
9
100
AcDbSymbolTableRecord
100
AcDbRegAppTableRecord
  2
ACAD
 70
     0
  0
APPID
  5
144
330
9
100
AcDbSymbolTableRecord
100
AcDbRegAppTableRecord
  2
ACAD_DSTYLE_DIMRADIAL_EXTENSION
 70
     0
  0
ENDTAB
  0
TABLE
  2
DIMSTYLE
  5
A
330
0
100
AcDbSymbolTable
 70
     1
100
AcDbDimStyleTable
  0
DIMSTYLE
105
27
102
{ACAD_REACTORS
330
15C
330
186
330
216
330
223
330
22E
330
23C
330
24A
330
258
330
265
330
272
330
27C
330
28D
330
28F
102
}
330
A
100
AcDbSymbolTableRecord
100
AcDbDimStyleTableRecord
  2
ISO-25
 70
     0
 41
2.5
 42
0.625
 43
3.75
 44
1.25
 73
     0
 74
     0
 77
     1
 78
     8
140
2.5
141
2.5
143
0.03937007874016
147
0.625
171
     3
172
     1
178
     0
271
     2
272
     2
274
     3
278
    44
283
     0
284
     8
340
11
  0
ENDTAB
  0
TABLE
  2
BLOCK_RECORD
  5
1
330
0
100
AcDbSymbolTable
 70
    24
  0
BLOCK_RECORD
  5
1F
330
1
100
AcDbSymbolTableRecord
100
AcDbBlockTableRecord
  2
*Model_Space
340
22
  0
BLOCK_RECORD
  5
1B
330
1
100
AcDbSymbolTableRecord
100
AcDbBlockTableRecord
  2
*Paper_Space
340
1E
  0
BLOCK_RECORD
  5
23
330
1
100
AcDbSymbolTableRecord
100
AcDbBlockTableRecord
  2
*Paper_Space0
340
26
  0
BLOCK_RECORD
  5
217
330
1
100
AcDbSymbolTableRecord
100
AcDbBlockTableRecord
  2
*D15
340
0
  0
BLOCK_RECORD
  5
224
330
1
100
AcDbSymbolTableRecord
100
AcDbBlockTableRecord
  2
*D16
340
0
  0
BLOCK_RECORD
  5
22F
330
1
100
AcDbSymbolTableRecord
100
AcDbBlockTableRecord
  2
*D17
340
0
  0
BLOCK_RECORD
  5
23D
330
1
100
AcDbSymbolTableRecord
100
AcDbBlockTableRecord
  2
*D18
340
0
  0
BLOCK_RECORD
  5
24B
330
1
100
AcDbSymbolTableRecord
100
AcDbBlockTableRecord
  2
*D19
340
0
  0
BLOCK_RECORD
  5
259
330
1
100
AcDbSymbolTableRecord
100
AcDbBlockTableRecord
  2
*D20
340
0
  0
BLOCK_RECORD
  5
266
330
1
100
AcDbSymbolTableRecord
100
AcDbBlockTableRecord
  2
*D21
340
0
  0
BLOCK_RECORD
  5
273
330
1
100
AcDbSymbolTableRecord
100
AcDbBlockTableRecord
  2
*D22
340
0
  0
BLOCK_RECORD
  5
27D
330
1
100
AcDbSymbolTableRecord
100
AcDbBlockTableRecord
  2
*D23
340
0
  0
ENDTAB
  0
ENDSEC
  0
SECTION
  2
BLOCKS
  0
BLOCK
  5
20
330
1F
100
AcDbEntity
  8
0
100
AcDbBlockBegin
  2
*Model_Space
 70
     0
 10
0.0
 20
0.0
 30
0.0
  3
*Model_Space
  1
*Model_Space
  0
ENDBLK
  5
21
330
1F
100
AcDbEntity
  8
0
100
AcDbBlockEnd
  0
BLOCK
  5
1C
330
1B
100
AcDbEntity
 67
     1
  8
0
100
AcDbBlockBegin
  2
*Paper_Space
 70
     0
 10
0.0
 20
0.0
 30
0.0
  3
*Paper_Space
  1
*Paper_Space
  0
ENDBLK
  5
1D
330
1B
100
AcDbEntity
 67
     1
  8
0
100
AcDbBlockEnd
  0
BLOCK
  5
24
330
23
100
AcDbEntity
  8
0
100
AcDbBlockBegin
  2
*Paper_Space0
 70
     0
 10
0.0
 20
0.0
 30
0.0
  3
*Paper_Space0
  1
*Paper_Space0
  0
ENDBLK
  5
25
330
23
100
AcDbEntity
  8
0
100
AcDbBlockEnd
  0
BLOCK
  5
218
330
217
100
AcDbEntity
  8
0
100
AcDbBlockBegin
  2
*D15
 70
     1
 10
0.0
 20
0.0
 30
0.0
  3
*D15
  1
*D15
  0
LINE
  5
21A
330
217
100
AcDbEntity
  8
0
 62
     0
370
    -2
100
AcDbLine
 10
1137.862391586369
 20
143.3687323579757
 30
0.0
 11
1137.862391586369
 21
76.7833055615854
 31
0.0
  0
LINE
  5
21B
330
217
100
AcDbEntity
  8
0
 62
     0
370
    -2
100
AcDbLine
 10
1927.862391586369
 20
143.3687323579757
 30
0.0
 11
1927.862391586369
 21
76.7833055615854
 31
0.0
  0
LINE
  5
21C
330
217
100
AcDbEntity
  8
0
 62
     0
370
    -2
100
AcDbLine
 10
1167.862391586369
 20
81.7833055615854
 30
0.0
 11
1897.862391586369
 21
81.7833055615854
 31
0.0
  0
SOLID
  5
21D
330
217
100
AcDbEntity
  8
0
 62
     0
100
AcDbTrace
 10
1167.862391586369
 20
86.7833055615854
 30
0.0
 11
1167.862391586369
 21
76.7833055615854
 31
0.0
 12
1137.862391586369
 22
81.7833055615854
 32
0.0
 13
1137.862391586369
 23
81.7833055615854
 33
0.0
  0
SOLID
  5
21E
330
217
100
AcDbEntity
  8
0
 62
     0
100
AcDbTrace
 10
1897.862391586369
 20
76.7833055615854
 30
0.0
 11
1897.862391586369
 21
86.7833055615854
 31
0.0
 12
1927.862391586369
 22
81.7833055615854
 32
0.0
 13
1927.862391586369
 23
81.7833055615854
 33
0.0
  0
MTEXT
  5
21F
330
217
100
AcDbEntity
  8
0
 62
     0
100
AcDbMText
 10
1532.862391586369
 20
98.1533055615854
 30
0.0
 40
17.5
 41
0.0
 71
     5
 72
     1
  1
790
 73
     1
 44
1.0
  0
POINT
  5
220
330
217
100
AcDbEntity
  8
Defpoints
 62
     0
100
AcDbPoint
 10
1137.862391586369
 20
148.3687323579757
 30
0.0
  0
POINT
  5
221
330
217
100
AcDbEntity
  8
Defpoints
 62
     0
100
AcDbPoint
 10
1927.862391586369
 20
148.3687323579757
 30
0.0
  0
POINT
  5
222
330
217
100
AcDbEntity
  8
Defpoints
 62
     0
100
AcDbPoint
 10
1927.862391586369
 20
81.7833055615854
 30
0.0
  0
ENDBLK
  5
219
330
217
100
AcDbEntity
  8
0
100
AcDbBlockEnd
  0
BLOCK
  5
225
330
224
100
AcDbEntity
  8
0
100
AcDbBlockBegin
  2
*D16
 70
     1
 10
0.0
 20
0.0
 30
0.0
  3
*D16
  1
*D16
  0
LINE
  5
227
330
224
100
AcDbEntity
  8
0
 62
     0
370
    -2
100
AcDbLine
 10
1043.388759055621
 20
87.0563085122276
 30
0.0
 11
1080.175425722287
 21
87.0563085122276
 31
0.0
  0
LINE
  5
228
330
224
100
AcDbEntity
  8
0
 62
     0
370
    -2
100
AcDbLine
 10
1080.175425722287
 20
87.0563085122276
 30
0.0
 11
1117.840849999573
 21
123.8958400765093
 31
0.0
  0
MTEXT
  5
229
330
224
100
AcDbEntity
  8
0
 62
     0
100
AcDbMText
 10
1057.972092388954
 20
103.4263085122276
 30
0.0
 40
17.5
 41
0.0
 71
     5
 72
     1
  1
R5
 73
     1
 44
1.0
  0
SOLID
  5
22A
330
224
100
AcDbEntity
  8
0
 62
     0
100
AcDbTrace
 10
1121.336977468354
 20
120.3213341355385
 30
0.0
 11
1114.344722530792
 21
127.4703460174801
 31
0.0
 12
1139.287885645398
 22
144.8726048891948
 32
0.0
 13
1139.287885645398
 23
144.8726048891948
 33
0.0
  0
POINT
  5
22B
330
224
100
AcDbEntity
  8
Defpoints
 62
     0
100
AcDbPoint
 10
1139.287885645398
 20
144.8726048891948
 30
0.0
  0
POINT
  5
22C
330
224
100
AcDbEntity
  8
Defpoints
 62
     0
100
AcDbPoint
 10
1142.862391586369
 20
148.3687323579757
 30
0.0
  0
ENDBLK
  5
226
330
224
100
AcDbEntity
  8
0
100
AcDbBlockEnd
  0
BLOCK
  5
230
330
22F
100
AcDbEntity
  8
0
100
AcDbBlockBegin
  2
*D17
 70
     1
 10
0.0
 20
0.0
 30
0.0
  3
*D17
  1
*D17
  0
LINE
  5
232
330
22F
100
AcDbEntity
  8
0
 62
     0
370
    -2
100
AcDbLine
 10
1927.862391586369
 20
143.3687323579757
 30
0.0
 11
2020.770007819643
 21
143.3687323579757
 31
0.0
  0
LINE
  5
233
330
22F
100
AcDbEntity
  8
0
 62
     0
370
    -2
100
AcDbLine
 10
1927.862391586369
 20
588.3687323579754
 30
0.0
 11
2020.770007819643
 21
588.3687323579754
 31
0.0
  0
LINE
  5
234
330
22F
100
AcDbEntity
  8
0
 62
     0
370
    -2
100
AcDbLine
 10
2015.770007819643
 20
173.3687323579757
 30
0.0
 11
2015.770007819643
 21
349.4987323579755
 31
0.0
  0
LINE
  5
235
330
22F
100
AcDbEntity
  8
0
 62
     0
370
    -2
100
AcDbLine
 10
2015.770007819643
 20
558.3687323579754
 30
0.0
 11
2015.770007819643
 21
382.2387323579756
 31
0.0
  0
SOLID
  5
236
330
22F
100
AcDbEntity
  8
0
 62
     0
100
AcDbTrace
 10
2010.770007819643
 20
173.3687323579757
 30
0.0
 11
2020.770007819643
 21
173.3687323579757
 31
0.0
 12
2015.770007819643
 22
143.3687323579757
 32
0.0
 13
2015.770007819643
 23
143.3687323579757
 33
0.0
  0
SOLID
  5
237
330
22F
100
AcDbEntity
  8
0
 62
     0
100
AcDbTrace
 10
2020.770007819643
 20
558.3687323579754
 30
0.0
 11
2010.770007819643
 21
558.3687323579754
 31
0.0
 12
2015.770007819643
 22
588.3687323579754
 32
0.0
 13
2015.770007819643
 23
588.3687323579754
 33
0.0
  0
MTEXT
  5
238
330
22F
100
AcDbEntity
  8
0
 62
     0
100
AcDbMText
 10
2015.770007819643
 20
365.8687323579755
 30
0.0
 40
17.5
 41
0.0
 71
     5
 72
     1
  1
445
 73
     1
 44
1.0
  0
POINT
  5
239
330
22F
100
AcDbEntity
  8
Defpoints
 62
     0
100
AcDbPoint
 10
1922.862391586369
 20
143.3687323579757
 30
0.0
  0
POINT
  5
23A
330
22F
100
AcDbEntity
  8
Defpoints
 62
     0
100
AcDbPoint
 10
1922.862391586369
 20
588.3687323579754
 30
0.0
  0
POINT
  5
23B
330
22F
100
AcDbEntity
  8
Defpoints
 62
     0
100
AcDbPoint
 10
2015.770007819643
 20
588.3687323579754
 30
0.0
  0
ENDBLK
  5
231
330
22F
100
AcDbEntity
  8
0
100
AcDbBlockEnd
  0
BLOCK
  5
23E
330
23D
100
AcDbEntity
  8
0
100
AcDbBlockBegin
  2
*D18
 70
     1
 10
0.0
 20
0.0
 30
0.0
  3
*D18
  1
*D18
  0
LINE
  5
240
330
23D
100
AcDbEntity
  8
0
 62
     0
370
    -2
100
AcDbLine
 10
1155.862391586369
 20
575.3687323579753
 30
0.0
 11
1005.970845134894
 21
575.3687323579753
 31
0.0
  0
LINE
  5
241
330
23D
100
AcDbEntity
  8
0
 62
     0
370
    -2
100
AcDbLine
 10
1155.862391586369
 20
156.3687323579757
 30
0.0
 11
1005.970845134894
 21
156.3687323579757
 31
0.0
  0
LINE
  5
242
330
23D
100
AcDbEntity
  8
0
 62
     0
370
    -2
100
AcDbLine
 10
1010.970845134894
 20
545.3687323579753
 30
0.0
 11
1010.970845134894
 21
382.2387323579756
 31
0.0
  0
LINE
  5
243
330
23D
100
AcDbEntity
  8
0
 62
     0
370
    -2
100
AcDbLine
 10
1010.970845134894
 20
186.3687323579757
 30
0.0
 11
1010.970845134894
 21
349.4987323579755
 31
0.0
  0
SOLID
  5
244
330
23D
100
AcDbEntity
  8
0
 62
     0
100
AcDbTrace
 10
1015.970845134894
 20
545.3687323579753
 30
0.0
 11
1005.970845134894
 21
545.3687323579753
 31
0.0
 12
1010.970845134894
 22
575.3687323579753
 32
0.0
 13
1010.970845134894
 23
575.3687323579753
 33
0.0
  0
SOLID
  5
245
330
23D
100
AcDbEntity
  8
0
 62
     0
100
AcDbTrace
 10
1005.970845134894
 20
186.3687323579757
 30
0.0
 11
1015.970845134894
 21
186.3687323579757
 31
0.0
 12
1010.970845134894
 22
156.3687323579757
 32
0.0
 13
1010.970845134894
 23
156.3687323579757
 33
0.0
  0
MTEXT
  5
246
330
23D
100
AcDbEntity
  8
0
 62
     0
100
AcDbMText
 10
1010.970845134894
 20
365.8687323579755
 30
0.0
 40
17.5
 41
0.0
 71
     5
 72
     1
  1
419
 73
     1
 44
1.0
  0
POINT
  5
247
330
23D
100
AcDbEntity
  8
Defpoints
 62
     0
100
AcDbPoint
 10
1160.862391586369
 20
575.3687323579753
 30
0.0
  0
POINT
  5
248
330
23D
100
AcDbEntity
  8
Defpoints
 62
     0
100
AcDbPoint
 10
1160.862391586369
 20
156.3687323579757
 30
0.0
  0
POINT
  5
291
330
23D
100
AcDbEntity
  8
Defpoints
 62
     0
100
AcDbPoint
 10
1010.970845134894
 20
156.3687323579757
 30
0.0
  0
ENDBLK
  5
23F
330
23D
100
AcDbEntity
  8
0
100
AcDbBlockEnd
  0
BLOCK
  5
24C
330
24B
100
AcDbEntity
  8
0
100
AcDbBlockBegin
  2
*D19
 70
     1
 10
0.0
 20
0.0
 30
0.0
  3
*D19
  1
*D19
  0
LINE
  5
24E
330
24B
100
AcDbEntity
  8
0
 62
     0
370
    -2
100
AcDbLine
 10
1157.362391586369
 20
570.8687323579754
 30
0.0
 11
1067.98630077185
 21
570.8687323579754
 31
0.0
  0
LINE
  5
24F
330
24B
100
AcDbEntity
  8
0
 62
     0
370
    -2
100
AcDbLine
 10
1157.362391586369
 20
160.8687323579757
 30
0.0
 11
1067.98630077185
 21
160.8687323579757
 31
0.0
  0
LINE
  5
250
330
24B
100
AcDbEntity
  8
0
 62
     0
370
    -2
100
AcDbLine
 10
1072.98630077185
 20
540.8687323579754
 30
0.0
 11
1072.98630077185
 21
382.2387323579756
 31
0.0
  0
LINE
  5
251
330
24B
100
AcDbEntity
  8
0
 62
     0
370
    -2
100
AcDbLine
 10
1072.98630077185
 20
190.8687323579757
 30
0.0
 11
1072.98630077185
 21
349.4987323579755
 31
0.0
  0
SOLID
  5
252
330
24B
100
AcDbEntity
  8
0
 62
     0
100
AcDbTrace
 10
1077.98630077185
 20
540.8687323579754
 30
0.0
 11
1067.98630077185
 21
540.8687323579754
 31
0.0
 12
1072.98630077185
 22
570.8687323579754
 32
0.0
 13
1072.98630077185
 23
570.8687323579754
 33
0.0
  0
SOLID
  5
253
330
24B
100
AcDbEntity
  8
0
 62
     0
100
AcDbTrace
 10
1067.98630077185
 20
190.8687323579757
 30
0.0
 11
1077.98630077185
 21
190.8687323579757
 31
0.0
 12
1072.98630077185
 22
160.8687323579757
 32
0.0
 13
1072.98630077185
 23
160.8687323579757
 33
0.0
  0
MTEXT
  5
254
330
24B
100
AcDbEntity
  8
0
 62
     0
100
AcDbMText
 10
1072.98630077185
 20
365.8687323579755
 30
0.0
 40
17.5
 41
0.0
 71
     5
 72
     1
  1
410
 73
     1
 44
1.0
  0
POINT
  5
255
330
24B
100
AcDbEntity
  8
Defpoints
 62
     0
100
AcDbPoint
 10
1162.362391586369
 20
570.8687323579754
 30
0.0
  0
POINT
  5
256
330
24B
100
AcDbEntity
  8
Defpoints
 62
     0
100
AcDbPoint
 10
1162.362391586369
 20
160.8687323579757
 30
0.0
  0
POINT
  5
292
330
24B
100
AcDbEntity
  8
Defpoints
 62
     0
100
AcDbPoint
 10
1072.98630077185
 20
160.8687323579757
 30
0.0
  0
ENDBLK
  5
24D
330
24B
100
AcDbEntity
  8
0
100
AcDbBlockEnd
  0
BLOCK
  5
25A
330
259
100
AcDbEntity
  8
0
100
AcDbBlockBegin
  2
*D20
 70
     1
 10
0.0
 20
0.0
 30
0.0
  3
*D20
  1
*D20
  0
LINE
  5
25C
330
259
100
AcDbEntity
  8
0
 62
     0
370
    -2
100
AcDbLine
 10
1150.862391586369
 20
570.3687323579753
 30
0.0
 11
1150.862391586369
 21
685.687653333467
 31
0.0
  0
LINE
  5
25D
330
259
100
AcDbEntity
  8
0
 62
     0
370
    -2
100
AcDbLine
 10
1914.862391586369
 20
570.3687323579754
 30
0.0
 11
1914.862391586369
 21
685.687653333467
 31
0.0
  0
LINE
  5
25E
330
259
100
AcDbEntity
  8
0
 62
     0
370
    -2
100
AcDbLine
 10
1180.862391586369
 20
680.687653333467
 30
0.0
 11
1884.862391586369
 21
680.687653333467
 31
0.0
  0
SOLID
  5
25F
330
259
100
AcDbEntity
  8
0
 62
     0
100
AcDbTrace
 10
1180.862391586369
 20
685.687653333467
 30
0.0
 11
1180.862391586369
 21
675.687653333467
 31
0.0
 12
1150.862391586369
 22
680.687653333467
 32
0.0
 13
1150.862391586369
 23
680.687653333467
 33
0.0
  0
SOLID
  5
260
330
259
100
AcDbEntity
  8
0
 62
     0
100
AcDbTrace
 10
1884.862391586369
 20
675.687653333467
 30
0.0
 11
1884.862391586369
 21
685.687653333467
 31
0.0
 12
1914.862391586369
 22
680.687653333467
 32
0.0
 13
1914.862391586369
 23
680.687653333467
 33
0.0
  0
MTEXT
  5
261
330
259
100
AcDbEntity
  8
0
 62
     0
100
AcDbMText
 10
1532.862391586369
 20
697.057653333467
 30
0.0
 40
17.5
 41
0.0
 71
     5
 72
     1
  1
764
 73
     1
 44
1.0
  0
POINT
  5
262
330
259
100
AcDbEntity
  8
Defpoints
 62
     0
100
AcDbPoint
 10
1150.862391586369
 20
565.3687323579753
 30
0.0
  0
POINT
  5
263
330
259
100
AcDbEntity
  8
Defpoints
 62
     0
100
AcDbPoint
 10
1914.862391586369
 20
565.3687323579754
 30
0.0
  0
POINT
  5
264
330
259
100
AcDbEntity
  8
Defpoints
 62
     0
100
AcDbPoint
 10
1914.862391586369
 20
680.687653333467
 30
0.0
  0
ENDBLK
  5
25B
330
259
100
AcDbEntity
  8
0
100
AcDbBlockEnd
  0
BLOCK
  5
267
330
266
100
AcDbEntity
  8
0
100
AcDbBlockBegin
  2
*D21
 70
     1
 10
0.0
 20
0.0
 30
0.0
  3
*D21
  1
*D21
  0
LINE
  5
269
330
266
100
AcDbEntity
  8
0
 62
     0
370
    -2
100
AcDbLine
 10
1155.362391586369
 20
568.8687323579754
 30
0.0
 11
1155.362391586369
 21
640.8245900598492
 31
0.0
  0
LINE
  5
26A
330
266
100
AcDbEntity
  8
0
 62
     0
370
    -2
100
AcDbLine
 10
1910.362391586369
 20
568.8687323579754
 30
0.0
 11
1910.362391586369
 21
640.8245900598492
 31
0.0
  0
LINE
  5
26B
330
266
100
AcDbEntity
  8
0
 62
     0
370
    -2
100
AcDbLine
 10
1185.362391586369
 20
635.8245900598492
 30
0.0
 11
1880.362391586369
 21
635.8245900598492
 31
0.0
  0
SOLID
  5
26C
330
266
100
AcDbEntity
  8
0
 62
     0
100
AcDbTrace
 10
1185.362391586369
 20
640.8245900598492
 30
0.0
 11
1185.362391586369
 21
630.8245900598492
 31
0.0
 12
1155.362391586369
 22
635.8245900598492
 32
0.0
 13
1155.362391586369
 23
635.8245900598492
 33
0.0
  0
SOLID
  5
26D
330
266
100
AcDbEntity
  8
0
 62
     0
100
AcDbTrace
 10
1880.362391586369
 20
630.8245900598492
 30
0.0
 11
1880.362391586369
 21
640.8245900598492
 31
0.0
 12
1910.362391586369
 22
635.8245900598492
 32
0.0
 13
1910.362391586369
 23
635.8245900598492
 33
0.0
  0
MTEXT
  5
26E
330
266
100
AcDbEntity
  8
0
 62
     0
100
AcDbMText
 10
1532.862391586369
 20
652.1945900598492
 30
0.0
 40
17.5
 41
0.0
 71
     5
 72
     1
  1
755
 73
     1
 44
1.0
  0
POINT
  5
26F
330
266
100
AcDbEntity
  8
Defpoints
 62
     0
100
AcDbPoint
 10
1155.362391586369
 20
563.8687323579754
 30
0.0
  0
POINT
  5
270
330
266
100
AcDbEntity
  8
Defpoints
 62
     0
100
AcDbPoint
 10
1910.362391586369
 20
563.8687323579754
 30
0.0
  0
POINT
  5
271
330
266
100
AcDbEntity
  8
Defpoints
 62
     0
100
AcDbPoint
 10
1910.362391586369
 20
635.8245900598492
 30
0.0
  0
ENDBLK
  5
268
330
266
100
AcDbEntity
  8
0
100
AcDbBlockEnd
  0
BLOCK
  5
274
330
273
100
AcDbEntity
  8
0
100
AcDbBlockBegin
  2
*D22
 70
     1
 10
0.0
 20
0.0
 30
0.0
  3
*D22
  1
*D22
  0
LINE
  5
276
330
273
100
AcDbEntity
  8
0
 62
     0
370
    -2
100
AcDbLine
 10
1987.21895625381
 20
611.5491759611625
 30
0.0
 11
1950.432289587143
 21
611.5491759611625
 31
0.0
  0
LINE
  5
277
330
273
100
AcDbEntity
  8
0
 62
     0
370
    -2
100
AcDbLine
 10
1950.432289587143
 20
611.5491759611625
 30
0.0
 11
1929.356215855453
 21
590.1997236015264
 31
0.0
  0
MTEXT
  5
278
330
273
100
AcDbEntity
  8
0
 62
     0
100
AcDbMText
 10
1972.635622920476
 20
627.9191759611625
 30
0.0
 40
17.5
 41
0.0
 71
     5
 72
     1
  1
R7
 73
     1
 44
1.0
  0
SOLID
  5
279
330
273
100
AcDbEntity
  8
0
 62
     0
100
AcDbTrace
 10
1925.797973795514
 20
593.7124025568081
 30
0.0
 11
1932.914457915392
 21
586.6870446462448
 31
0.0
 12
1908.280142123763
 22
568.8502712418905
 32
0.0
 13
1908.280142123763
 23
568.8502712418905
 33
0.0
  0
POINT
  5
27A
330
273
100
AcDbEntity
  8
Defpoints
 62
     0
100
AcDbPoint
 10
1908.280142123763
 20
568.8502712418905
 30
0.0
  0
POINT
  5
27B
330
273
100
AcDbEntity
  8
Defpoints
 62
     0
100
AcDbPoint
 10
1903.362391586369
 20
563.8687323579754
 30
0.0
  0
ENDBLK
  5
275
330
273
100
AcDbEntity
  8
0
100
AcDbBlockEnd
  0
BLOCK
  5
27E
330
27D
100
AcDbEntity
  8
0
100
AcDbBlockBegin
  2
*D23
 70
     1
 10
0.0
 20
0.0
 30
0.0
  3
*D23
  1
*D23
  0
LINE
  5
280
330
27D
100
AcDbEntity
  8
0
 62
     0
370
    -2
100
AcDbLine
 10
2012.269792659069
 20
104.2297262526393
 30
0.0
 11
1966.733125992402
 21
104.2297262526393
 31
0.0
  0
LINE
  5
281
330
27D
100
AcDbEntity
  8
0
 62
     0
370
    -2
100
AcDbLine
 10
1966.733125992402
 20
104.2297262526393
 30
0.0
 11
1933.085409103612
 21
138.0233397478636
 31
0.0
  0
MTEXT
  5
282
330
27D
100
AcDbEntity
  8
0
 62
     0
100
AcDbMText
 10
1993.311459325735
 20
120.5997262526393
 30
0.0
 40
17.5
 41
0.0
 71
     5
 72
     1
  1
R10
 73
     1
 44
1.0
  0
SOLID
  5
283
330
27D
100
AcDbEntity
  8
0
 62
     0
100
AcDbTrace
 10
1936.628583179876
 20
141.551216937519
 30
0.0
 11
1929.542235027348
 21
134.4954625582082
 31
0.0
 12
1911.91814596568
 22
159.2823842054476
 32
0.0
 13
1911.91814596568
 23
159.2823842054476
 33
0.0
  0
POINT
  5
284
330
27D
100
AcDbEntity
  8
Defpoints
 62
     0
100
AcDbPoint
 10
1911.91814596568
 20
159.2823842054476
 30
0.0
  0
POINT
  5
285
330
27D
100
AcDbEntity
  8
Defpoints
 62
     0
100
AcDbPoint
 10
1904.862391586369
 20
166.3687323579758
 30
0.0
  0
ENDBLK
  5
27F
330
27D
100
AcDbEntity
  8
0
100
AcDbBlockEnd
  0
ENDSEC
  0
SECTION
  2
ENTITIES
  0
LEADER
  5
15C
330
1F
100
AcDbEntity
  8
0
100
AcDbLeader
  3
ISO-25
 73
     0
 74
     0
 40
40.0
 41
160.0
 76
     3
 10
1927.862391586369
 20
365.8687323579755
 30
0.0
 10
2060.969542103522
 20
461.2016849662303
 30
0.0
 10
2088.584100669018
 20
458.1358908854451
 30
0.0
340
15D
213
0.0
223
1.75
233
0.0
1001
ACAD
1000
DSTYLE
1002
{
1070
    40
1040
5.0
1070
    77
1070
     0
1070
   143
1040
0.0393700787401575
1070
    41
1040
6.0
1070
    44
1040
1.0
1070
    42
1040
1.0
1070
   147
1040
1.524
1070
    73
1070
     1
1070
    74
1070
     1
1070
   140
1040
3.5
1070
   284
1070
     0
1070
    78
1070
     0
1002
}
  0
MTEXT
  5
15D
102
{ACAD_REACTORS
330
15C
102
}
330
1F
100
AcDbEntity
  8
0
100
AcDbMText
 10
2096.204100669018
 20
456.3858908854451
 30
0.0
 40
15.0
 41
186.2919691506211
 71
     7
 72
     1
  1
{FLUSH MOUNT REBATE 1.0MM}
 73
     1
 44
1.0
1001
ACAD
1000
ACAD_MTEXT_DEFINED_HEIGHT_BEGIN
1070
    46
1040
40.0
1000
ACAD_MTEXT_DEFINED_HEIGHT_END
  0
MTEXT
  5
185
102
{ACAD_REACTORS
330
186
102
}
330
1F
100
AcDbEntity
  8
0
100
AcDbMText
 10
1323.704100669018
 20
456.3858908854451
 30
0.0
 40
15.0
 41
251.3868087724856
 71
     7
 72
     1
  1
{UNDERMOUNT CUTOUT}
 73
     1
 44
1.0
1001
ACAD
1000
ACAD_MTEXT_DEFINED_HEIGHT_BEGIN
1070
    46
1040
40.0
1000
ACAD_MTEXT_DEFINED_HEIGHT_END
  0
LEADER
  5
186
330
1F
100
AcDbEntity
  8
0
100
AcDbLeader
  3
ISO-25
 73
     0
 74
     0
 40
15.0
 41
250.0
 76
     3
 10
1155.362391586369
 20
365.8687323579755
 30
0.0
 10
1282.525921406873
 20
460.814744672305
 30
0.0
 10
1316.18259235391
 20
461.0870107189992
 30
0.0
340
185
213
0.0
223
1.75
233
0.0
1001
ACAD
1000
DSTYLE
1002
{
1070
    40
1040
5.0
1070
    77
1070
     0
1070
   143
1040
0.0393700787401575
1070
    41
1040
6.0
1070
    44
1040
1.0
1070
    42
1040
1.0
1070
   147
1040
1.524
1070
    73
1070
     1
1070
    74
1070
     1
1070
   140
1040
3.5
1070
   284
1070
     0
1070
    78
1070
     0
1002
}
  0
DIMENSION
  5
216
330
1F
100
AcDbEntity
  8
0
100
AcDbDimension
  2
*D15
 10
1927.862391586369
 20
81.7833055615854
 30
0.0
 11
1532.862391586369
 21
98.1533055615854
 31
0.0
 70
    32
 71
     5
 42
790.0
  3
ISO-25
100
AcDbAlignedDimension
 13
1137.862391586369
 23
148.3687323579757
 33
0.0
 14
1927.862391586369
 24
148.3687323579757
 34
0.0
100
AcDbRotatedDimension
1001
ACAD
1000
DSTYLE
1002
{
1070
   175
1070
     1
1070
   172
1070
     0
1070
   174
1070
     0
1070
    40
1040
5.0
1070
   143
1040
0.0393700787401575
1070
    41
1040
6.0
1070
    44
1040
1.0
1070
    42
1040
1.0
1070
   147
1040
1.524
1070
    73
1070
     1
1070
    74
1070
     1
1070
   140
1040
3.5
1070
   284
1070
     0
1070
    78
1070
     8
1002
}
  0
DIMENSION
  5
223
330
1F
100
AcDbEntity
  8
0
100
AcDbDimension
  2
*D16
 10
1142.862391586369
 20
148.3687323579757
 30
0.0
 11
1057.972092388954
 21
87.0563085122276
 31
0.0
 70
   164
  1
<>
 71
     5
 42
4.999999999999954
  3
ISO-25
100
AcDbRadialDimension
 15
1139.287885645398
 25
144.8726048891948
 35
0.0
 40
0.0
1001
ACAD
1000
DSTYLE
1002
{
1070
   141
1040
0.0
1070
   175
1070
     1
1070
   172
1070
     0
1070
   174
1070
     0
1070
    40
1040
5.0
1070
   143
1040
0.0393700787401575
1070
    41
1040
6.0
1070
    44
1040
1.0
1070
    42
1040
1.0
1070
   147
1040
1.524
1070
    73
1070
     1
1070
    74
1070
     1
1070
   140
1040
3.5
1070
   284
1070
     0
1070
    78
1070
     8
1002
}
1001
ACAD_DSTYLE_DIMRADIAL_EXTENSION
1070
   387
1070
     1
1070
   388
1040
3.141592653589793
1070
   390
1040
4.71238898038469
  0
DIMENSION
  5
22E
330
1F
100
AcDbEntity
  8
0
100
AcDbDimension
  2
*D17
 10
2015.770007819643
 20
588.3687323579754
 30
0.0
 11
2015.770007819643
 21
365.8687323579755
 31
0.0
 70
    32
 71
     5
 42
444.9999999999998
  3
ISO-25
100
AcDbAlignedDimension
 13
1922.862391586369
 23
143.3687323579757
 33
0.0
 14
1922.862391586369
 24
588.3687323579754
 34
0.0
 50
90.0
100
AcDbRotatedDimension
1001
ACAD
1000
DSTYLE
1002
{
1070
   175
1070
     1
1070
   172
1070
     0
1070
   174
1070
     0
1070
    40
1040
5.0
1070
   143
1040
0.0393700787401575
1070
    41
1040
6.0
1070
    44
1040
1.0
1070
    42
1040
1.0
1070
   147
1040
1.524
1070
    73
1070
     1
1070
    74
1070
     1
1070
   140
1040
3.5
1070
   284
1070
     0
1070
    78
1070
     8
1002
}
  0
DIMENSION
  5
23C
330
1F
100
AcDbEntity
  8
0
100
AcDbDimension
  2
*D18
 10
1010.970845134894
 20
156.3687323579757
 30
0.0
 11
1010.970845134894
 21
365.8687323579755
 31
0.0
 70
   160
 71
     5
 42
418.9999999999996
  3
ISO-25
100
AcDbAlignedDimension
 13
1160.862391586369
 23
575.3687323579753
 33
0.0
 14
1160.862391586369
 24
156.3687323579757
 34
0.0
 50
90.0
100
AcDbRotatedDimension
1001
ACAD
1000
DSTYLE
1002
{
1070
    77
1070
     0
1070
   175
1070
     1
1070
   172
1070
     0
1070
   174
1070
     0
1070
    40
1040
5.0
1070
   143
1040
0.0393700787401575
1070
    41
1040
6.0
1070
    44
1040
1.0
1070
    42
1040
1.0
1070
   147
1040
1.524
1070
    73
1070
     1
1070
    74
1070
     1
1070
   140
1040
3.5
1070
   284
1070
     0
1070
    78
1070
     8
1002
}
  0
DIMENSION
  5
24A
330
1F
100
AcDbEntity
  8
0
100
AcDbDimension
  2
*D19
 10
1072.98630077185
 20
160.8687323579757
 30
0.0
 11
1072.98630077185
 21
365.8687323579755
 31
0.0
 70
   160
 71
     5
 42
409.9999999999998
  3
ISO-25
100
AcDbAlignedDimension
 13
1162.362391586369
 23
570.8687323579754
 33
0.0
 14
1162.362391586369
 24
160.8687323579757
 34
0.0
 50
90.0
100
AcDbRotatedDimension
1001
ACAD
1000
DSTYLE
1002
{
1070
    77
1070
     0
1070
   175
1070
     1
1070
   172
1070
     0
1070
   174
1070
     0
1070
    40
1040
5.0
1070
   143
1040
0.0393700787401575
1070
    41
1040
6.0
1070
    44
1040
1.0
1070
    42
1040
1.0
1070
   147
1040
1.524
1070
    73
1070
     1
1070
    74
1070
     1
1070
   140
1040
3.5
1070
   284
1070
     0
1070
    78
1070
     8
1002
}
  0
DIMENSION
  5
258
330
1F
100
AcDbEntity
  8
0
100
AcDbDimension
  2
*D20
 10
1914.862391586369
 20
680.687653333467
 30
0.0
 11
1532.862391586369
 21
697.057653333467
 31
0.0
 70
    32
 71
     5
 42
764.0
  3
ISO-25
100
AcDbAlignedDimension
 13
1150.862391586369
 23
565.3687323579753
 33
0.0
 14
1914.862391586369
 24
565.3687323579754
 34
0.0
100
AcDbRotatedDimension
1001
ACAD
1000
DSTYLE
1002
{
1070
   175
1070
     1
1070
   172
1070
     0
1070
   174
1070
     0
1070
    40
1040
5.0
1070
   143
1040
0.0393700787401575
1070
    41
1040
6.0
1070
    44
1040
1.0
1070
    42
1040
1.0
1070
   147
1040
1.524
1070
    73
1070
     1
1070
    74
1070
     1
1070
   140
1040
3.5
1070
   284
1070
     0
1070
    78
1070
     8
1002
}
  0
DIMENSION
  5
265
330
1F
100
AcDbEntity
  8
0
100
AcDbDimension
  2
*D21
 10
1910.362391586369
 20
635.8245900598492
 30
0.0
 11
1532.862391586369
 21
652.1945900598492
 31
0.0
 70
    32
 71
     5
 42
755.0
  3
ISO-25
100
AcDbAlignedDimension
 13
1155.362391586369
 23
563.8687323579754
 33
0.0
 14
1910.362391586369
 24
563.8687323579754
 34
0.0
100
AcDbRotatedDimension
1001
ACAD
1000
DSTYLE
1002
{
1070
   175
1070
     1
1070
   172
1070
     0
1070
   174
1070
     0
1070
    40
1040
5.0
1070
   143
1040
0.0393700787401575
1070
    41
1040
6.0
1070
    44
1040
1.0
1070
    42
1040
1.0
1070
   147
1040
1.524
1070
    73
1070
     1
1070
    74
1070
     1
1070
   140
1040
3.5
1070
   284
1070
     0
1070
    78
1070
     8
1002
}
  0
DIMENSION
  5
272
330
1F
100
AcDbEntity
  8
0
100
AcDbDimension
  2
*D22
 10
1903.362391586369
 20
563.8687323579754
 30
0.0
 11
1972.635622920476
 21
611.5491759611625
 31
0.0
 70
   164
  1
<>
 71
     5
 42
6.999999999999995
  3
ISO-25
100
AcDbRadialDimension
 15
1908.280142123763
 25
568.8502712418905
 35
0.0
 40
0.0
1001
ACAD
1000
DSTYLE
1002
{
1070
   141
1040
0.0
1070
   175
1070
     1
1070
   172
1070
     0
1070
   174
1070
     0
1070
    40
1040
5.0
1070
   143
1040
0.0393700787401575
1070
    41
1040
6.0
1070
    44
1040
1.0
1070
    42
1040
1.0
1070
   147
1040
1.524
1070
    73
1070
     1
1070
    74
1070
     1
1070
   140
1040
3.5
1070
   284
1070
     0
1070
    78
1070
     8
1002
}
1001
ACAD_DSTYLE_DIMRADIAL_EXTENSION
1070
   387
1070
     1
1070
   388
1040
0.0
1070
   390
1040
1.570796326794897
  0
DIMENSION
  5
27C
330
1F
100
AcDbEntity
  8
0
100
AcDbDimension
  2
*D23
 10
1904.862391586369
 20
166.3687323579758
 30
0.0
 11
1993.311459325735
 21
104.2297262526393
 31
0.0
 70
   164
  1
<>
 71
     5
 42
10.00000000000018
  3
ISO-25
100
AcDbRadialDimension
 15
1911.91814596568
 25
159.2823842054476
 35
0.0
 40
0.0
1001
ACAD
1000
DSTYLE
1002
{
1070
   141
1040
0.0
1070
   175
1070
     1
1070
   172
1070
     0
1070
   174
1070
     0
1070
    40
1040
5.0
1070
   143
1040
0.0393700787401575
1070
    41
1040
6.0
1070
    44
1040
1.0
1070
    42
1040
1.0
1070
   147
1040
1.524
1070
    73
1070
     1
1070
    74
1070
     1
1070
   140
1040
3.5
1070
   284
1070
     0
1070
    78
1070
     8
1002
}
1001
ACAD_DSTYLE_DIMRADIAL_EXTENSION
1070
   387
1070
     1
1070
   388
1040
4.71238898038469
1070
   390
1040
0.0
  0
LEADER
  5
28D
330
1F
100
AcDbEntity
  8
0
100
AcDbLeader
  3
ISO-25
 73
     0
 74
     0
 75
     1
 40
15.0
 41
170.0
 76
     4
 10
1273.831365350766
 20
156.4699268048178
 30
0.0
 10
1387.616366583894
 20
270.4470021934154
 30
0.0
 10
1428.553074433416
 20
288.7370853322873
 30
0.0
 10
1434.553074433416
 20
288.7370853322873
 30
0.0
340
28E
213
0.0
223
1.75
233
0.0
1001
ACAD
1000
DSTYLE
1002
{
1070
    40
1040
5.0
1070
    77
1070
     0
1070
   143
1040
0.0393700787401575
1070
    41
1040
6.0
1070
    44
1040
1.0
1070
    42
1040
1.0
1070
   147
1040
1.524
1070
    73
1070
     1
1070
    74
1070
     1
1070
   140
1040
3.5
1070
   284
1070
     0
1070
    78
1070
     0
1002
}
  0
MTEXT
  5
28E
102
{ACAD_REACTORS
330
28D
102
}
330
1F
100
AcDbEntity
  8
0
100
AcDbMText
 10
1442.173074433415
 20
286.9870853322873
 30
0.0
 40
15.0
 41
251.3868087724856
 71
     7
 72
     1
  1
{INSET CUTOUT}
 73
     1
 44
1.0
1001
ACAD
1000
ACAD_MTEXT_DEFINED_HEIGHT_BEGIN
1070
    46
1040
15.0
1000
ACAD_MTEXT_DEFINED_HEIGHT_END
  0
LEADER
  5
28F
330
1F
100
AcDbEntity
  8
0
100
AcDbLeader
  3
ISO-25
 73
     0
 74
     0
 75
     1
 40
15.0
 41
170.0
 76
     4
 10
1273.831365350766
 20
156.4699268048178
 30
0.0
 10
1387.616366583894
 20
270.4470021934154
 30
0.0
 10
1428.553074433416
 20
288.7370853322873
 30
0.0
 10
1434.553074433416
 20
288.7370853322873
 30
0.0
340
290
213
0.0
223
1.75
233
0.0
1001
ACAD
1000
DSTYLE
1002
{
1070
    40
1040
5.0
1070
    77
1070
     0
1070
   143
1040
0.0393700787401575
1070
    41
1040
6.0
1070
    44
1040
1.0
1070
    42
1040
1.0
1070
   147
1040
1.524
1070
    73
1070
     1
1070
    74
1070
     1
1070
   140
1040
3.5
1070
   284
1070
     0
1070
    78
1070
     0
1002
}
  0
MTEXT
  5
290
102
{ACAD_REACTORS
330
28F
102
}
330
1F
100
AcDbEntity
  8
0
100
AcDbMText
 10
1442.173074433415
 20
286.9870853322873
 30
0.0
 40
15.0
 41
251.3868087724856
 71
     7
 72
     1
  1
{INSET CUTOUT}
 73
     1
 44
1.0
1001
ACAD
1000
ACAD_MTEXT_DEFINED_HEIGHT_BEGIN
1070
    46
1040
15.0
1000
ACAD_MTEXT_DEFINED_HEIGHT_END
  0
MTEXT
  5
2E0
330
1F
100
AcDbEntity
  8
0
100
AcDbMText
 10
1996.862354988107
 20
622.3082564959049
 30
0.0
 40
15.0
 41
227.2887927714787
 71
     7
 72
     1
  1
{FOR UNDERMOUNT}
 73
     1
 44
1.0
1001
ACAD
1000
ACAD_MTEXT_DEFINED_HEIGHT_BEGIN
1070
    46
1040
15.0
1000
ACAD_MTEXT_DEFINED_HEIGHT_END
  0
MTEXT
  5
307
330
1F
100
AcDbEntity
  8
0
100
AcDbMText
 10
2029.460307952767
 20
111.3976400005028
 30
0.0
 40
15.0
 41
186.2919691506211
 71
     7
 72
     1
  1
{FOR INSET}
 73
     1
 44
1.0
1001
ACAD
1000
ACAD_MTEXT_DEFINED_HEIGHT_BEGIN
1070
    46
1040
15.0
1000
ACAD_MTEXT_DEFINED_HEIGHT_END
  0
MTEXT
  5
32E
330
1F
100
AcDbEntity
  8
0
100
AcDbMText
 10
815.1209654010742
 20
94.92156615282369
 30
0.0
 40
15.0
 41
252.3180545662706
 71
     7
 72
     1
  1
{FOR FLUSH MOUNT }
 73
     1
 44
1.0
1001
ACAD
1000
ACAD_MTEXT_DEFINED_HEIGHT_BEGIN
1070
    46
1040
15.0
1000
ACAD_MTEXT_DEFINED_HEIGHT_END
  0
LINE
  5
352
330
1F
100
AcDbEntity
  8
0
  6
HIDDEN
 48
10.0
100
AcDbLine
 10
1137.862391586369
 20
148.3687323579757
 30
0.0
 11
1137.862391586369
 21
583.3687323579754
 31
0.0
  0
ARC
  5
353
330
1F
100
AcDbEntity
  8
0
  6
HIDDEN
 48
10.0
100
AcDbCircle
 10
1142.862391586369
 20
583.3687323579754
 30
0.0
 40
5.0
100
AcDbArc
 50
90.0
 51
180.0
  0
LINE
  5
354
330
1F
100
AcDbEntity
  8
0
  6
HIDDEN
 48
10.0
100
AcDbLine
 10
1142.862391586369
 20
588.3687323579754
 30
0.0
 11
1922.862391586369
 21
588.3687323579754
 31
0.0
  0
ARC
  5
355
330
1F
100
AcDbEntity
  8
0
  6
HIDDEN
 48
10.0
100
AcDbCircle
 10
1922.862391586369
 20
583.3687323579754
 30
0.0
 40
5.0
100
AcDbArc
 50
0.0
 51
90.0
  0
LINE
  5
356
330
1F
100
AcDbEntity
  8
0
  6
HIDDEN
 48
10.0
100
AcDbLine
 10
1927.862391586369
 20
583.3687323579754
 30
0.0
 11
1927.862391586369
 21
148.3687323579757
 31
0.0
  0
ARC
  5
357
330
1F
100
AcDbEntity
  8
0
  6
HIDDEN
 48
10.0
100
AcDbCircle
 10
1922.862391586369
 20
148.3687323579757
 30
0.0
 40
5.0
100
AcDbArc
 50
270.0
 51
0.0
  0
LINE
  5
358
330
1F
100
AcDbEntity
  8
0
  6
HIDDEN
 48
10.0
100
AcDbLine
 10
1922.862391586369
 20
143.3687323579757
 30
0.0
 11
1142.862391586369
 21
143.3687323579757
 31
0.0
  0
ARC
  5
359
330
1F
100
AcDbEntity
  8
0
  6
HIDDEN
 48
10.0
100
AcDbCircle
 10
1142.862391586369
 20
148.3687323579757
 30
0.0
 40
5.0
100
AcDbArc
 50
180.0
 51
270.0
  0
LINE
  5
35A
330
1F
100
AcDbEntity
  8
0
100
AcDbLine
 10
1150.862391586369
 20
166.3687323579757
 30
0.0
 11
1150.862391586369
 21
565.3687323579753
 31
0.0
  0
ARC
  5
35B
330
1F
100
AcDbEntity
  8
0
100
AcDbCircle
 10
1160.862391586369
 20
565.3687323579753
 30
0.0
 40
10.0
100
AcDbArc
 50
90.0
 51
180.0
  0
LINE
  5
35C
330
1F
100
AcDbEntity
  8
0
100
AcDbLine
 10
1160.862391586369
 20
575.3687323579753
 30
0.0
 11
1904.862391586369
 21
575.3687323579754
 31
0.0
  0
ARC
  5
35D
330
1F
100
AcDbEntity
  8
0
100
AcDbCircle
 10
1904.862391586369
 20
565.3687323579754
 30
0.0
 40
9.999999999999996
100
AcDbArc
 50
0.0
 51
90.0
  0
LINE
  5
35E
330
1F
100
AcDbEntity
  8
0
100
AcDbLine
 10
1914.862391586369
 20
565.3687323579754
 30
0.0
 11
1914.862391586369
 21
166.3687323579758
 31
0.0
  0
ARC
  5
35F
330
1F
100
AcDbEntity
  8
0
100
AcDbCircle
 10
1904.862391586369
 20
166.3687323579758
 30
0.0
 40
10.0
100
AcDbArc
 50
270.0
 51
0.0
  0
LINE
  5
360
330
1F
100
AcDbEntity
  8
0
100
AcDbLine
 10
1904.862391586369
 20
156.3687323579758
 30
0.0
 11
1160.862391586369
 21
156.3687323579757
 31
0.0
  0
ARC
  5
361
330
1F
100
AcDbEntity
  8
0
100
AcDbCircle
 10
1160.862391586369
 20
166.3687323579757
 30
0.0
 40
10.0
100
AcDbArc
 50
180.0
 51
270.0
  0
LINE
  5
362
330
1F
100
AcDbEntity
  8
0
100
AcDbLine
 10
1155.362391586369
 20
167.8687323579757
 30
0.0
 11
1155.362391586369
 21
563.8687323579754
 31
0.0
  0
ARC
  5
363
330
1F
100
AcDbEntity
  8
0
100
AcDbCircle
 10
1162.362391586369
 20
563.8687323579754
 30
0.0
 40
7.0
100
AcDbArc
 50
90.0
 51
180.0
  0
LINE
  5
364
330
1F
100
AcDbEntity
  8
0
100
AcDbLine
 10
1162.362391586369
 20
570.8687323579754
 30
0.0
 11
1903.362391586369
 21
570.8687323579754
 31
0.0
  0
ARC
  5
365
330
1F
100
AcDbEntity
  8
0
100
AcDbCircle
 10
1903.362391586369
 20
563.8687323579754
 30
0.0
 40
7.0
100
AcDbArc
 50
0.0
 51
90.0
  0
LINE
  5
366
330
1F
100
AcDbEntity
  8
0
100
AcDbLine
 10
1910.362391586369
 20
563.8687323579754
 30
0.0
 11
1910.362391586369
 21
167.8687323579757
 31
0.0
  0
ARC
  5
367
330
1F
100
AcDbEntity
  8
0
100
AcDbCircle
 10
1903.362391586369
 20
167.8687323579757
 30
0.0
 40
7.0
100
AcDbArc
 50
270.0
 51
0.0
  0
LINE
  5
368
330
1F
100
AcDbEntity
  8
0
100
AcDbLine
 10
1903.362391586369
 20
160.8687323579757
 30
0.0
 11
1162.362391586369
 21
160.8687323579757
 31
0.0
  0
ARC
  5
369
330
1F
100
AcDbEntity
  8
0
100
AcDbCircle
 10
1162.362391586369
 20
167.8687323579757
 30
0.0
 40
7.0
100
AcDbArc
 50
180.0
 51
270.0
  0
ENDSEC
  0
SECTION
  2
OBJECTS
  0
DICTIONARY
  5
C
330
0
100
AcDbDictionary
281
     1
  3
ACAD_DETAILVIEWSTYLE
350
18A
  3
ACAD_GROUP
350
D
  3
ACAD_IMAGE_VARS
350
109
  3
ACAD_LAYOUT
350
1A
  3
ACAD_MLINESTYLE
350
17
  3
ACAD_PLOTSETTINGS
350
19
  3
ACAD_PLOTSTYLENAME
350
E
  3
ACAD_SCALELIST
350
3B
  3
ACAD_SECTIONVIEWSTYLE
350
18B
  3
AcadDim
350
15E
  3
AcDbVariableDictionary
350
6C
  3
APPDATA
350
107
  3
DWGPROPS
350
36F
  0
DICTIONARY
  5
18A
102
{ACAD_REACTORS
330
C
102
}
330
C
100
AcDbDictionary
281
     1
  0
DICTIONARY
  5
D
102
{ACAD_REACTORS
330
C
102
}
330
C
100
AcDbDictionary
281
     1
  0
RASTERVARIABLES
  5
109
102
{ACAD_REACTORS
330
C
102
}
330
C
100
AcDbRasterVariables
 90
        0
 70
     1
 71
     1
 72
     1
  0
DICTIONARY
  5
1A
102
{ACAD_REACTORS
330
C
102
}
330
C
100
AcDbDictionary
281
     1
  3
Layout1
350
1E
  3
Layout2
350
26
  3
Model
350
22
  0
DICTIONARY
  5
17
102
{ACAD_REACTORS
330
C
102
}
330
C
100
AcDbDictionary
281
     1
  3
Standard
350
18
  0
DICTIONARY
  5
19
102
{ACAD_REACTORS
330
C
102
}
330
C
100
AcDbDictionary
281
     1
  0
ACDBDICTIONARYWDFLT
  5
E
102
{ACAD_REACTORS
330
C
102
}
330
C
100
AcDbDictionary
281
     1
  3
Normal
350
F
100
AcDbDictionaryWithDefault
340
F
  0
DICTIONARY
  5
3B
102
{ACAD_REACTORS
330
C
102
}
330
C
100
AcDbDictionary
281
     1
  3
A0
350
3C
  3
A1
350
3D
  3
A2
350
3E
  3
A3
350
3F
  3
A4
350
40
  3
A5
350
41
  3
A6
350
42
  3
A7
350
43
  3
A8
350
44
  3
A9
350
45
  3
B0
350
46
  3
B1
350
47
  3
B2
350
48
  3
B3
350
49
  3
B4
350
4A
  3
B5
350
4B
  3
B6
350
4C
  3
B7
350
4D
  3
B8
350
4E
  3
B9
350
4F
  3
C0
350
50
  3
C1
350
51
  3
C2
350
52
  3
C3
350
53
  3
C4
350
54
  3
C5
350
55
  3
C6
350
56
  3
C7
350
57
  3
C8
350
58
  3
C9
350
59
  3
D0
350
5A
  3
D1
350
5B
  3
D2
350
5C
  0
DICTIONARY
  5
18B
102
{ACAD_REACTORS
330
C
102
}
330
C
100
AcDbDictionary
281
     1
  0
XRECORD
  5
15E
102
{ACAD_REACTORS
330
C
102
}
330
C
100
AcDbXrecord
280
     1
340
15D
 72
     0
 71
     0
 70
     0
 69
     0
 68
     1
 67
     3
 66
     0
 65
     0
 64
     0
 63
     3
 62
     1
 61
     0
 60
     0
 40
108.3553668176662
  0
DICTIONARY
  5
6C
102
{ACAD_REACTORS
330
C
102
}
330
C
100
AcDbDictionary
281
     1
  3
DIMASSOC
350
A1
  3
PROJECTNAME
350
A2
  0
DICTIONARY
  5
107
102
{ACAD_REACTORS
330
C
102
}
330
C
100
AcDbDictionary
281
     1
  0
XRECORD
  5
36F
102
{ACAD_REACTORS
330
C
102
}
330
C
100
AcDbXrecord
280
     1
  1
DWGPROPS COOKIE
  2

  3

  4

  6

  7

  8
jaxton
  9

300
=
301
=
302
=
303
=
304
=
305
=
306
=
307
=
308
=
309
=
 40
0.0
 41
2454524.406326308
 42
2457718.194590856
  1

 90
        0
  0
LAYOUT
  5
1E
102
{ACAD_REACTORS
330
1A
102
}
330
1A
100
AcDbPlotSettings
  1

  2
none_device
  4

  6

 40
0.0
 41
0.0
 42
0.0
 43
0.0
 44
0.0
 45
0.0
 46
0.0
 47
0.0
 48
0.0
 49
0.0
140
0.0
141
0.0
142
1.0
143
1.0
 70
   688
 72
     0
 73
     0
 74
     5
  7

 75
    16
147
1.0
148
0.0
149
0.0
100
AcDbLayout
  1
Layout1
 70
     1
 71
     1
 10
0.0
 20
0.0
 11
0.0
 21
0.0
 12
0.0
 22
0.0
 32
0.0
 14
1.000000000000000E+20
 24
1.000000000000000E+20
 34
1.000000000000000E+20
 15
-1.000000000000000E+20
 25
-1.000000000000000E+20
 35
-1.000000000000000E+20
146
0.0
 13
0.0
 23
0.0
 33
0.0
 16
1.0
 26
0.0
 36
0.0
 17
0.0
 27
1.0
 37
0.0
 76
     0
330
1B
  0
LAYOUT
  5
26
102
{ACAD_REACTORS
330
1A
102
}
330
1A
100
AcDbPlotSettings
  1

  2
none_device
  4

  6

 40
0.0
 41
0.0
 42
0.0
 43
0.0
 44
0.0
 45
0.0
 46
0.0
 47
0.0
 48
0.0
 49
0.0
140
0.0
141
0.0
142
1.0
143
1.0
 70
   688
 72
     0
 73
     0
 74
     5
  7

 75
    16
147
1.0
148
0.0
149
0.0
100
AcDbLayout
  1
Layout2
 70
     1
 71
     2
 10
0.0
 20
0.0
 11
0.0
 21
0.0
 12
0.0
 22
0.0
 32
0.0
 14
0.0
 24
0.0
 34
0.0
 15
0.0
 25
0.0
 35
0.0
146
0.0
 13
0.0
 23
0.0
 33
0.0
 16
1.0
 26
0.0
 36
0.0
 17
0.0
 27
1.0
 37
0.0
 76
     0
330
23
  0
LAYOUT
  5
22
102
{ACAD_REACTORS
330
1A
102
}
330
1A
100
AcDbPlotSettings
  1

  2
none_device
  4

  6

 40
0.0
 41
0.0
 42
0.0
 43
0.0
 44
0.0
 45
0.0
 46
0.0
 47
0.0
 48
0.0
 49
0.0
140
0.0
141
0.0
142
1.0
143
1.0
 70
  1712
 72
     0
 73
     0
 74
     0
  7

 75
     0
147
1.0
148
0.0
149
0.0
100
AcDbLayout
  1
Model
 70
     1
 71
     0
 10
0.0
 20
0.0
 11
594.0
 21
420.0
 12
0.0
 22
0.0
 32
0.0
 14
815.1209654010742
 24
76.7833055615854
 34
0.0
 15
2256.204100669018
 25
705.807653333467
 35
0.0
146
0.0
 13
0.0
 23
0.0
 33
0.0
 16
1.0
 26
0.0
 36
0.0
 17
0.0
 27
1.0
 37
0.0
 76
     0
330
1F
331
F8
  0
MLINESTYLE
  5
18
102
{ACAD_REACTORS
330
17
102
}
330
17
100
AcDbMlineStyle
  2
STANDARD
 70
     0
  3

 62
   256
 51
90.0
 52
90.0
 71
     2
 49
0.5
 62
   256
  6
BYLAYER
 49
-0.5
 62
   256
  6
BYLAYER
  0
ACDBPLACEHOLDER
  5
F
102
{ACAD_REACTORS
330
E
102
}
330
E
  0
SCALE
  5
3C
102
{ACAD_REACTORS
330
3B
102
}
330
3B
100
AcDbScale
 70
     0
300
1:1
140
1.0
141
1.0
290
     1
  0
SCALE
  5
3D
102
{ACAD_REACTORS
330
3B
102
}
330
3B
100
AcDbScale
 70
     0
300
1:2
140
1.0
141
2.0
290
     0
  0
SCALE
  5
3E
102
{ACAD_REACTORS
330
3B
102
}
330
3B
100
AcDbScale
 70
     0
300
1:4
140
1.0
141
4.0
290
     0
  0
SCALE
  5
3F
102
{ACAD_REACTORS
330
3B
102
}
330
3B
100
AcDbScale
 70
     0
300
1:5
140
1.0
141
5.0
290
     0
  0
SCALE
  5
40
102
{ACAD_REACTORS
330
3B
102
}
330
3B
100
AcDbScale
 70
     0
300
1:8
140
1.0
141
8.0
290
     0
  0
SCALE
  5
41
102
{ACAD_REACTORS
330
3B
102
}
330
3B
100
AcDbScale
 70
     0
300
1:10
140
1.0
141
10.0
290
     0
  0
SCALE
  5
42
102
{ACAD_REACTORS
330
3B
102
}
330
3B
100
AcDbScale
 70
     0
300
1:16
140
1.0
141
16.0
290
     0
  0
SCALE
  5
43
102
{ACAD_REACTORS
330
3B
102
}
330
3B
100
AcDbScale
 70
     0
300
1:20
140
1.0
141
20.0
290
     0
  0
SCALE
  5
44
102
{ACAD_REACTORS
330
3B
102
}
330
3B
100
AcDbScale
 70
     0
300
1:30
140
1.0
141
30.0
290
     0
  0
SCALE
  5
45
102
{ACAD_REACTORS
330
3B
102
}
330
3B
100
AcDbScale
 70
     0
300
1:40
140
1.0
141
40.0
290
     0
  0
SCALE
  5
46
102
{ACAD_REACTORS
330
3B
102
}
330
3B
100
AcDbScale
 70
     0
300
1:50
140
1.0
141
50.0
290
     0
  0
SCALE
  5
47
102
{ACAD_REACTORS
330
3B
102
}
330
3B
100
AcDbScale
 70
     0
300
1:100
140
1.0
141
100.0
290
     0
  0
SCALE
  5
48
102
{ACAD_REACTORS
330
3B
102
}
330
3B
100
AcDbScale
 70
     0
300
2:1
140
2.0
141
1.0
290
     0
  0
SCALE
  5
49
102
{ACAD_REACTORS
330
3B
102
}
330
3B
100
AcDbScale
 70
     0
300
4:1
140
4.0
141
1.0
290
     0
  0
SCALE
  5
4A
102
{ACAD_REACTORS
330
3B
102
}
330
3B
100
AcDbScale
 70
     0
300
8:1
140
8.0
141
1.0
290
     0
  0
SCALE
  5
4B
102
{ACAD_REACTORS
330
3B
102
}
330
3B
100
AcDbScale
 70
     0
300
10:1
140
10.0
141
1.0
290
     0
  0
SCALE
  5
4C
102
{ACAD_REACTORS
330
3B
102
}
330
3B
100
AcDbScale
 70
     0
300
100:1
140
100.0
141
1.0
290
     0
  0
SCALE
  5
4D
102
{ACAD_REACTORS
330
3B
102
}
330
3B
100
AcDbScale
 70
     0
300
1/128" = 1'-0"
140
0.0078125
141
12.0
290
     0
  0
SCALE
  5
4E
102
{ACAD_REACTORS
330
3B
102
}
330
3B
100
AcDbScale
 70
     0
300
1/64" = 1'-0"
140
0.015625
141
12.0
290
     0
  0
SCALE
  5
4F
102
{ACAD_REACTORS
330
3B
102
}
330
3B
100
AcDbScale
 70
     0
300
1/32" = 1'-0"
140
0.03125
141
12.0
290
     0
  0
SCALE
  5
50
102
{ACAD_REACTORS
330
3B
102
}
330
3B
100
AcDbScale
 70
     0
300
1/16" = 1'-0"
140
0.0625
141
12.0
290
     0
  0
SCALE
  5
51
102
{ACAD_REACTORS
330
3B
102
}
330
3B
100
AcDbScale
 70
     0
300
3/32" = 1'-0"
140
0.09375
141
12.0
290
     0
  0
SCALE
  5
52
102
{ACAD_REACTORS
330
3B
102
}
330
3B
100
AcDbScale
 70
     0
300
1/8" = 1'-0"
140
0.125
141
12.0
290
     0
  0
SCALE
  5
53
102
{ACAD_REACTORS
330
3B
102
}
330
3B
100
AcDbScale
 70
     0
300
3/16" = 1'-0"
140
0.1875
141
12.0
290
     0
  0
SCALE
  5
54
102
{ACAD_REACTORS
330
3B
102
}
330
3B
100
AcDbScale
 70
     0
300
1/4" = 1'-0"
140
0.25
141
12.0
290
     0
  0
SCALE
  5
55
102
{ACAD_REACTORS
330
3B
102
}
330
3B
100
AcDbScale
 70
     0
300
3/8" = 1'-0"
140
0.375
141
12.0
290
     0
  0
SCALE
  5
56
102
{ACAD_REACTORS
330
3B
102
}
330
3B
100
AcDbScale
 70
     0
300
1/2" = 1'-0"
140
0.5
141
12.0
290
     0
  0
SCALE
  5
57
102
{ACAD_REACTORS
330
3B
102
}
330
3B
100
AcDbScale
 70
     0
300
3/4" = 1'-0"
140
0.75
141
12.0
290
     0
  0
SCALE
  5
58
102
{ACAD_REACTORS
330
3B
102
}
330
3B
100
AcDbScale
 70
     0
300
1" = 1'-0"
140
1.0
141
12.0
290
     0
  0
SCALE
  5
59
102
{ACAD_REACTORS
330
3B
102
}
330
3B
100
AcDbScale
 70
     0
300
1-1/2" = 1'-0"
140
1.5
141
12.0
290
     0
  0
SCALE
  5
5A
102
{ACAD_REACTORS
330
3B
102
}
330
3B
100
AcDbScale
 70
     0
300
3" = 1'-0"
140
3.0
141
12.0
290
     0
  0
SCALE
  5
5B
102
{ACAD_REACTORS
330
3B
102
}
330
3B
100
AcDbScale
 70
     0
300
6" = 1'-0"
140
6.0
141
12.0
290
     0
  0
SCALE
  5
5C
102
{ACAD_REACTORS
330
3B
102
}
330
3B
100
AcDbScale
 70
     0
300
1'-0" = 1'-0"
140
12.0
141
12.0
290
     0
  0
DICTIONARYVAR
  5
A1
102
{ACAD_REACTORS
330
6C
102
}
330
6C
100
DictionaryVariables
280
     0
  1
1
  0
DICTIONARYVAR
  5
A2
102
{ACAD_REACTORS
330
6C
102
}
330
6C
100
DictionaryVariables
280
     0
  1

  0
ENDSEC
  0
EOF
